sexy massage oil spytug.16.02.05.girl.52.mp4

 sexy massage oil

Download: http://rapidgator.net/file/0d5eacc78f2289b32f18de4baa1d96d4/ef60_22tpcy.7z.html
Archive key: ef60
Technical details

General
Complete name                            : /tmp/spytug.16.02.05.girl.52.mp4/spytug.16.02.05.girl.52.mp4
Format                                   : MPEG-4
Format profile                           : Base Media / Version 2
Codec ID                                 : mp42 (mp41/mp42/isom)
File size                                : 473 MiB
Duration                                 : 7mn 57s
Overall bit rate mode                    : Variable
Overall bit rate                         : 8 309 Kbps
Movie name                               : SpyTug198-G52
Encoded date                             : UTC 2016-02-01 04:55:54
Tagged date                              : UTC 2016-02-01 05:12:16

Video
ID                                       : 2
Format                                   : AVC
Format/Info                              : Advanced Video Codec
Format profile                           : Main@L4
Format settings, CABAC                   : No
Format settings, ReFrames                : 2 frames
Codec ID                                 : avc1
Codec ID/Info                            : Advanced Video Coding
Duration                                 : 7mn 57s
Bit rate mode                            : Variable
Bit rate                                 : 8 052 Kbps
Maximum bit rate                         : 768 Kbps
Width                                    : 1 920 pixels
Height                                   : 1 080 pixels
Display aspect ratio                     : 16:9
Frame rate mode                          : Constant
Frame rate                               : 29.970 (30000/1001) fps
Original frame rate                      : 25.000 fps
Color space                              : YUV
Chroma subsampling                       : 4:2:0
Bit depth                                : 8 bits
Scan type                                : Progressive
Bits/(Pixel*Frame)                       : 0.130
Stream size                              : 458 MiB (97%)
Title                                    : Core Media Video
Encoded date                             : UTC 2016-02-01 04:55:54
Tagged date                              : UTC 2016-02-01 05:12:16
Color range                              : Limited
Color primaries                          : BT.709
Transfer characteristics                 : BT.709
Matrix coefficients                      : BT.709

Audio
ID                                       : 1
Format                                   : AAC
Format/Info                              : Advanced Audio Codec
Format profile                           : LC
Codec ID                                 : 40
Duration                                 : 7mn 57s
Source duration                          : 7mn 57s
Bit rate mode                            : Constant
Bit rate                                 : 256 Kbps
Channel(s)                               : 2 channels
Channel positions                        : Front: L R
Sampling rate                            : 44.1 KHz
Frame rate                               : 43.066 fps (1024 spf)
Compression mode                         : Lossy
Stream size                              : 14.3 MiB (3%)
Source stream size                       : 14.3 MiB (3%)
Title                                    : Core Media Audio
Language                                 : English
Encoded date                             : UTC 2016-02-01 04:55:54
Tagged date                              : UTC 2016-02-01 05:12:16



                        

sexy massage oil

massage-love in Videos