spytug.15.09.11.girl.43.mp4 message erotic

 message erotic

Download: http://rapidgator.net/file/af69b2fa323f363d408296aeef1bbe35/0o2_bcdkt9.7z.html
Archive key: 0o2
Technical details

General
Complete name                            : /tmp/spytug.15.09.11.girl.43.mp4/spytug.15.09.11.girl.43.mp4
Format                                   : MPEG-4
Format profile                           : Base Media / Version 2
Codec ID                                 : mp42 (mp41/mp42/isom)
File size                                : 565 MiB
Duration                                 : 9mn 29s
Overall bit rate mode                    : Variable
Overall bit rate                         : 8 324 Kbps
Movie name                               : SpyTug173-G43
Encoded date                             : UTC 2015-09-08 22:17:50
Tagged date                              : UTC 2015-09-08 22:37:12

Video
ID                                       : 2
Format                                   : AVC
Format/Info                              : Advanced Video Codec
Format profile                           : Main@L4
Format settings, CABAC                   : No
Format settings, ReFrames                : 2 frames
Codec ID                                 : avc1
Codec ID/Info                            : Advanced Video Coding
Duration                                 : 9mn 29s
Bit rate mode                            : Variable
Bit rate                                 : 8 067 Kbps
Maximum bit rate                         : 768 Kbps
Width                                    : 1 920 pixels
Height                                   : 1 080 pixels
Display aspect ratio                     : 16:9
Frame rate mode                          : Constant
Frame rate                               : 29.970 (30000/1001) fps
Original frame rate                      : 25.000 fps
Color space                              : YUV
Chroma subsampling                       : 4:2:0
Bit depth                                : 8 bits
Scan type                                : Progressive
Bits/(Pixel*Frame)                       : 0.130
Stream size                              : 548 MiB (97%)
Title                                    : Core Media Video
Encoded date                             : UTC 2015-09-08 22:17:50
Tagged date                              : UTC 2015-09-08 22:37:12
Color range                              : Limited
Color primaries                          : BT.709
Transfer characteristics                 : BT.709
Matrix coefficients                      : BT.709

Audio
ID                                       : 1
Format                                   : AAC
Format/Info                              : Advanced Audio Codec
Format profile                           : LC
Codec ID                                 : 40
Duration                                 : 9mn 29s
Source duration                          : 9mn 29s
Bit rate mode                            : Constant
Bit rate                                 : 256 Kbps
Channel(s)                               : 2 channels
Channel positions                        : Front: L R
Sampling rate                            : 44.1 KHz
Frame rate                               : 43.066 fps (1024 spf)
Compression mode                         : Lossy
Stream size                              : 17.1 MiB (3%)
Source stream size                       : 17.1 MiB (3%)
Title                                    : Core Media Audio
Language                                 : English
Encoded date                             : UTC 2015-09-08 22:17:50
Tagged date                              : UTC 2015-09-08 22:37:12



                        

message erotic

massage-love in Massage