massage parlor spa spytug.15.02.06.girl.14.mp4

 massage parlor spa

Download: http://rapidgator.net/file/5b17a290049e44066fbda95aabd9c187/3ln_hknk.7z.html
Archive key: 3ln
Technical details

General
Complete name                            : /tmp/spytug.15.02.06.girl.14.mp4/spytug.15.02.06.girl.14.mp4
Format                                   : MPEG-4
Format profile                           : Base Media / Version 2
Codec ID                                 : mp42 (mp42/mp41)
File size                                : 303 MiB
Duration                                 : 7mn 12s
Overall bit rate                         : 5 875 Kbps
Encoded date                             : UTC 2015-02-02 21:47:04
Tagged date                              : UTC 2015-02-02 21:47:22

Video
ID                                       : 1
Format                                   : AVC
Format/Info                              : Advanced Video Codec
Format profile                           : Main@L4
Format settings, CABAC                   : No
Format settings, ReFrames                : 2 frames
Format settings, GOP                     : M=2, N=30
Codec ID                                 : avc1
Codec ID/Info                            : Advanced Video Coding
Duration                                 : 7mn 12s
Bit rate                                 : 5 326 Kbps
Width                                    : 1 920 pixels
Height                                   : 1 080 pixels
Display aspect ratio                     : 16:9
Frame rate mode                          : Constant
Frame rate                               : 29.970 (30000/1001) fps
Color space                              : YUV
Chroma subsampling                       : 4:2:0
Bit depth                                : 8 bits
Scan type                                : Progressive
Bits/(Pixel*Frame)                       : 0.086
Stream size                              : 275 MiB (91%)
Language                                 : English
Encoded date                             : UTC 2015-02-02 21:46:53
Tagged date                              : UTC 2015-02-02 21:47:22
Color range                              : Limited
Color primaries                          : BT.709
Transfer characteristics                 : BT.709
Matrix coefficients                      : BT.709

Audio
ID                                       : 2
Format                                   : AAC
Format/Info                              : Advanced Audio Codec
Format profile                           : LC
Codec ID                                 : 40
Duration                                 : 7mn 12s
Source duration                          : 7mn 12s
Bit rate mode                            : Constant
Bit rate                                 : 256 Kbps
Channel(s)                               : 2 channels
Channel positions                        : Front: L R
Sampling rate                            : 44.1 KHz
Frame rate                               : 43.066 fps (1024 spf)
Compression mode                         : Lossy
Stream size                              : 13.4 MiB (4%)
Source stream size                       : 13.4 MiB (4%)
Language                                 : English
Encoded date                             : UTC 2015-02-02 21:46:53
Tagged date                              : UTC 2015-02-02 21:47:22

Other #1
ID                                       : 3
Type                                     : Hint
Format                                   : RTP
Codec ID                                 : rtp 
Duration                                 : 7mn 12s
Title                                    : Hinted Sound Track
Language                                 : English
Default                                  : No
Encoded date                             : UTC 2015-02-02 21:46:53
Tagged date                              : UTC 2015-02-02 21:47:22
Source duration                          : 432541
Source frame count                       : 16723
Source stream size                       : 833184
Stream size                              : 833184
Bit rate mode                            : VBR

Other #2
ID                                       : 4
Type                                     : Hint
Format                                   : RTP
Codec ID                                 : rtp 
Duration                                 : 7mn 12s
Title                                    : Hinted Video Track
Language                                 : English
Default                                  : No
Encoded date                             : UTC 2015-02-02 21:46:56
Tagged date                              : UTC 2015-02-02 21:47:22



                        

massage parlor spa

massage-love in New