spytug.15.01.15.girl.34.mp4

 sensual massage for woman

Download: http://rapidgator.net/file/bb8ceca29669d16b3b483c72570a0edd/3lec_rm8gy.7z.html
Archive key: 3lec
Technical details

General
Complete name                            : /tmp/spytug.15.01.15.girl.34.mp4/spytug.15.01.15.girl.34.mp4
Format                                   : MPEG-4
Format profile                           : Base Media / Version 2
Codec ID                                 : mp42 (mp42/mp41)
File size                                : 171 MiB
Duration                                 : 4mn 7s
Overall bit rate                         : 5 795 Kbps
Encoded date                             : UTC 2015-01-13 02:06:16
Tagged date                              : UTC 2015-01-13 02:06:25

Video
ID                                       : 1
Format                                   : AVC
Format/Info                              : Advanced Video Codec
Format profile                           : Main@L4
Format settings, CABAC                   : No
Format settings, ReFrames                : 2 frames
Format settings, GOP                     : M=2, N=30
Codec ID                                 : avc1
Codec ID/Info                            : Advanced Video Coding
Duration                                 : 4mn 7s
Bit rate                                 : 5 257 Kbps
Width                                    : 1 920 pixels
Height                                   : 1 080 pixels
Display aspect ratio                     : 16:9
Frame rate mode                          : Constant
Frame rate                               : 29.970 (30000/1001) fps
Color space                              : YUV
Chroma subsampling                       : 4:2:0
Bit depth                                : 8 bits
Scan type                                : Progressive
Bits/(Pixel*Frame)                       : 0.085
Stream size                              : 155 MiB (91%)
Language                                 : English
Encoded date                             : UTC 2015-01-13 02:06:11
Tagged date                              : UTC 2015-01-13 02:06:25
Color range                              : Limited
Color primaries                          : BT.709
Transfer characteristics                 : BT.709
Matrix coefficients                      : BT.709

Audio
ID                                       : 2
Format                                   : AAC
Format/Info                              : Advanced Audio Codec
Format profile                           : LC
Codec ID                                 : 40
Duration                                 : 4mn 7s
Source duration                          : 4mn 7s
Bit rate mode                            : Constant
Bit rate                                 : 256 Kbps
Channel(s)                               : 2 channels
Channel positions                        : Front: L R
Sampling rate                            : 44.1 KHz
Frame rate                               : 43.066 fps (1024 spf)
Compression mode                         : Lossy
Stream size                              : 7.38 MiB (4%)
Source stream size                       : 7.38 MiB (4%)
Language                                 : English
Encoded date                             : UTC 2015-01-13 02:06:11
Tagged date                              : UTC 2015-01-13 02:06:25

Other #1
ID                                       : 3
Type                                     : Hint
Format                                   : RTP
Codec ID                                 : rtp 
Duration                                 : 4mn 7s
Title                                    : Hinted Sound Track
Language                                 : English
Default                                  : No
Encoded date                             : UTC 2015-01-13 02:06:11
Tagged date                              : UTC 2015-01-13 02:06:25
Source duration                          : 247827
Source frame count                       : 7897
Source stream size                       : 423472
Stream size                              : 423472
Bit rate mode                            : VBR

Other #2
ID                                       : 4
Type                                     : Hint
Format                                   : RTP
Codec ID                                 : rtp 
Duration                                 : 4mn 7s
Title                                    : Hinted Video Track
Language                                 : English
Default                                  : No
Encoded date                             : UTC 2015-01-13 02:06:12
Tagged date                              : UTC 2015-01-13 02:06:25



                        

sensual massage for woman

massage-love in Massage