ertic massage spytug.14.10.10.girl.10.mp4

 ertic massage

Download: http://rapidgator.net/file/50532f25373b0c1d81e6bf3150388c9e/gqtk_yhz3z0.7z.html
Archive key: gqtk
Technical details

General
Complete name                            : /tmp/spytug.14.10.10.girl.10.mp4/spytug.14.10.10.girl.10.mp4
Format                                   : MPEG-4
Format profile                           : Base Media / Version 2
Codec ID                                 : mp42 (mp42/mp41)
File size                                : 99.8 MiB
Duration                                 : 2mn 33s
Overall bit rate                         : 5 471 Kbps
Encoded date                             : UTC 2014-10-05 23:21:12
Tagged date                              : UTC 2014-10-05 23:21:17

Video
ID                                       : 1
Format                                   : AVC
Format/Info                              : Advanced Video Codec
Format profile                           : Main@L4
Format settings, CABAC                   : No
Format settings, ReFrames                : 2 frames
Format settings, GOP                     : M=2, N=30
Codec ID                                 : avc1
Codec ID/Info                            : Advanced Video Coding
Duration                                 : 2mn 33s
Bit rate                                 : 4 949 Kbps
Width                                    : 1 920 pixels
Height                                   : 1 080 pixels
Display aspect ratio                     : 16:9
Frame rate mode                          : Constant
Frame rate                               : 29.970 (30000/1001) fps
Color space                              : YUV
Chroma subsampling                       : 4:2:0
Bit depth                                : 8 bits
Scan type                                : Progressive
Bits/(Pixel*Frame)                       : 0.080
Stream size                              : 90.3 MiB (90%)
Language                                 : English
Encoded date                             : UTC 2014-10-05 23:21:10
Tagged date                              : UTC 2014-10-05 23:21:17
Color range                              : Limited
Color primaries                          : BT.709
Transfer characteristics                 : BT.709
Matrix coefficients                      : BT.709

Audio
ID                                       : 2
Format                                   : AAC
Format/Info                              : Advanced Audio Codec
Format profile                           : LC
Codec ID                                 : 40
Duration                                 : 2mn 33s
Source duration                          : 2mn 33s
Bit rate mode                            : Constant
Bit rate                                 : 256 Kbps
Channel(s)                               : 2 channels
Channel positions                        : Front: L R
Sampling rate                            : 44.1 KHz
Frame rate                               : 43.066 fps (1024 spf)
Compression mode                         : Lossy
Stream size                              : 4.59 MiB (5%)
Source stream size                       : 4.59 MiB (5%)
Language                                 : English
Encoded date                             : UTC 2014-10-05 23:21:10
Tagged date                              : UTC 2014-10-05 23:21:17

Other #1
ID                                       : 3
Type                                     : Hint
Format                                   : RTP
Codec ID                                 : rtp 
Duration                                 : 2mn 33s
Title                                    : Hinted Sound Track
Language                                 : English
Default                                  : No
Encoded date                             : UTC 2014-10-05 23:21:10
Tagged date                              : UTC 2014-10-05 23:21:17
Source duration                          : 153066
Source frame count                       : 4890
Source stream size                       : 261952
Stream size                              : 261952
Bit rate mode                            : VBR

Other #2
ID                                       : 4
Type                                     : Hint
Format                                   : RTP
Codec ID                                 : rtp 
Duration                                 : 2mn 33s
Title                                    : Hinted Video Track
Language                                 : English
Default                                  : No
Encoded date                             : UTC 2014-10-05 23:21:10
Tagged date                              : UTC 2014-10-05 23:21:17



                        

ertic massage

massage-videos in Videos