sexy massage body spytug.14.09.27.girl.25.mp4

 sexy massage body

Download: http://rapidgator.net/file/970e35b22383801d1a1d3feb9523117b/gcz0_d5e7ca.7z.html
Archive key: gcz0
Technical details

General
Complete name                            : /tmp/spytug.14.09.27.girl.25.mp4/spytug.14.09.27.girl.25.mp4
Format                                   : MPEG-4
Format profile                           : Base Media / Version 2
Codec ID                                 : mp42 (mp42/mp41)
File size                                : 487 MiB
Duration                                 : 12mn 38s
Overall bit rate                         : 5 378 Kbps
Encoded date                             : UTC 2014-09-24 00:43:20
Tagged date                              : UTC 2014-09-24 00:43:43

Video
ID                                       : 1
Format                                   : AVC
Format/Info                              : Advanced Video Codec
Format profile                           : Main@L4
Format settings, CABAC                   : No
Format settings, ReFrames                : 2 frames
Format settings, GOP                     : M=2, N=30
Codec ID                                 : avc1
Codec ID/Info                            : Advanced Video Coding
Duration                                 : 12mn 38s
Bit rate                                 : 4 855 Kbps
Width                                    : 1 920 pixels
Height                                   : 1 080 pixels
Display aspect ratio                     : 16:9
Frame rate mode                          : Constant
Frame rate                               : 29.970 (30000/1001) fps
Color space                              : YUV
Chroma subsampling                       : 4:2:0
Bit depth                                : 8 bits
Scan type                                : Progressive
Bits/(Pixel*Frame)                       : 0.078
Stream size                              : 439 MiB (90%)
Language                                 : English
Encoded date                             : UTC 2014-09-24 00:43:06
Tagged date                              : UTC 2014-09-24 00:43:43
Color range                              : Limited
Color primaries                          : BT.709
Transfer characteristics                 : BT.709
Matrix coefficients                      : BT.709

Audio
ID                                       : 2
Format                                   : AAC
Format/Info                              : Advanced Audio Codec
Format profile                           : LC
Codec ID                                 : 40
Duration                                 : 12mn 38s
Source duration                          : 12mn 38s
Bit rate mode                            : Constant
Bit rate                                 : 256 Kbps
Channel(s)                               : 2 channels
Channel positions                        : Front: L R
Sampling rate                            : 44.1 KHz
Frame rate                               : 43.066 fps (1024 spf)
Compression mode                         : Lossy
Stream size                              : 22.6 MiB (5%)
Source stream size                       : 22.6 MiB (5%)
Language                                 : English
Encoded date                             : UTC 2014-09-24 00:43:06
Tagged date                              : UTC 2014-09-24 00:43:43

Other #1
ID                                       : 3
Type                                     : Hint
Format                                   : RTP
Codec ID                                 : rtp 
Duration                                 : 12mn 38s
Title                                    : Hinted Sound Track
Language                                 : English
Default                                  : No
Encoded date                             : UTC 2014-09-24 00:43:06
Tagged date                              : UTC 2014-09-24 00:43:43
Source duration                          : 758967
Source frame count                       : 24329
Source stream size                       : 1301504
Stream size                              : 1301504
Bit rate mode                            : VBR

Other #2
ID                                       : 4
Type                                     : Hint
Format                                   : RTP
Codec ID                                 : rtp 
Duration                                 : 12mn 38s
Title                                    : Hinted Video Track
Language                                 : English
Default                                  : No
Encoded date                             : UTC 2014-09-24 00:43:10
Tagged date                              : UTC 2014-09-24 00:43:43



                        

sexy massage body

massage-videos in New