spytug.14.08.09.girl.14.mp4 sex in massage

 sex in massage

Download: http://rapidgator.net/file/1cf94f4f431a2ad9586f05ed289f77cf/5hc_kcqdcm.7z.html
Archive key: 5hc
Technical details

General
Complete name                            : /tmp/spytug.14.08.09.girl.14.mp4/spytug.14.08.09.girl.14.mp4
Format                                   : MPEG-4
Format profile                           : Base Media / Version 2
Codec ID                                 : mp42 (mp42/mp41)
File size                                : 312 MiB
Duration                                 : 8mn 21s
Overall bit rate                         : 5 217 Kbps
Encoded date                             : UTC 2014-08-06 22:34:50
Tagged date                              : UTC 2014-08-06 22:35:06

Video
ID                                       : 1
Format                                   : AVC
Format/Info                              : Advanced Video Codec
Format profile                           : Main@L4
Format settings, CABAC                   : No
Format settings, ReFrames                : 2 frames
Format settings, GOP                     : M=2, N=30
Codec ID                                 : avc1
Codec ID/Info                            : Advanced Video Coding
Duration                                 : 8mn 21s
Bit rate                                 : 4 691 Kbps
Width                                    : 1 920 pixels
Height                                   : 1 080 pixels
Display aspect ratio                     : 16:9
Frame rate mode                          : Constant
Frame rate                               : 29.970 (30000/1001) fps
Color space                              : YUV
Chroma subsampling                       : 4:2:0
Bit depth                                : 8 bits
Scan type                                : Progressive
Bits/(Pixel*Frame)                       : 0.075
Stream size                              : 280 MiB (90%)
Language                                 : English
Encoded date                             : UTC 2014-08-06 22:34:41
Tagged date                              : UTC 2014-08-06 22:35:06
Color range                              : Limited
Color primaries                          : BT.709
Transfer characteristics                 : BT.709
Matrix coefficients                      : BT.709

Audio
ID                                       : 2
Format                                   : AAC
Format/Info                              : Advanced Audio Codec
Format profile                           : LC
Codec ID                                 : 40
Duration                                 : 8mn 21s
Source duration                          : 8mn 21s
Bit rate mode                            : Constant
Bit rate                                 : 256 Kbps
Channel(s)                               : 2 channels
Channel positions                        : Front: L R
Sampling rate                            : 44.1 KHz
Frame rate                               : 43.066 fps (1024 spf)
Compression mode                         : Lossy
Stream size                              : 15.5 MiB (5%)
Source stream size                       : 15.5 MiB (5%)
Language                                 : English
Encoded date                             : UTC 2014-08-06 22:34:41
Tagged date                              : UTC 2014-08-06 22:35:06

Other #1
ID                                       : 3
Type                                     : Hint
Format                                   : RTP
Codec ID                                 : rtp 
Duration                                 : 8mn 21s
Title                                    : Hinted Sound Track
Language                                 : English
Default                                  : No
Encoded date                             : UTC 2014-08-06 22:34:41
Tagged date                              : UTC 2014-08-06 22:35:06
Source duration                          : 501388
Source frame count                       : 20053
Source stream size                       : 987184
Stream size                              : 987184
Bit rate mode                            : VBR

Other #2
ID                                       : 4
Type                                     : Hint
Format                                   : RTP
Codec ID                                 : rtp 
Duration                                 : 8mn 21s
Title                                    : Hinted Video Track
Language                                 : English
Default                                  : No
Encoded date                             : UTC 2014-08-06 22:34:43
Tagged date                              : UTC 2014-08-06 22:35:06



                        

sex in massage

massage-videos in Videos