spytug.14.06.07.girl.20.mp4 what oil to use for a massage

 what oil to use for a massage

Download: http://rapidgator.net/file/887091a7bac0611b4cd9be227ad6caa2/zr8_rktaz.7z.html
Archive key: zr8
Technical details

General
Complete name                            : /tmp/spytug.14.06.07.girl.20.mp4/spytug.14.06.07.girl.20.mp4
Format                                   : MPEG-4
Format profile                           : Base Media / Version 2
Codec ID                                 : mp42 (mp42/mp41)
File size                                : 282 MiB
Duration                                 : 7mn 32s
Overall bit rate                         : 5 216 Kbps
Encoded date                             : UTC 2014-06-03 21:13:54
Tagged date                              : UTC 2014-06-03 21:14:09

Video
ID                                       : 1
Format                                   : AVC
Format/Info                              : Advanced Video Codec
Format profile                           : Main@L4
Format settings, CABAC                   : No
Format settings, ReFrames                : 2 frames
Format settings, GOP                     : M=2, N=30
Codec ID                                 : avc1
Codec ID/Info                            : Advanced Video Coding
Duration                                 : 7mn 32s
Bit rate                                 : 4 697 Kbps
Width                                    : 1 920 pixels
Height                                   : 1 080 pixels
Display aspect ratio                     : 16:9
Frame rate mode                          : Constant
Frame rate                               : 29.970 (30000/1001) fps
Color space                              : YUV
Chroma subsampling                       : 4:2:0
Bit depth                                : 8 bits
Scan type                                : Progressive
Bits/(Pixel*Frame)                       : 0.076
Stream size                              : 254 MiB (90%)
Language                                 : English
Encoded date                             : UTC 2014-06-03 21:13:45
Tagged date                              : UTC 2014-06-03 21:14:09
Color range                              : Limited
Color primaries                          : BT.709
Transfer characteristics                 : BT.709
Matrix coefficients                      : BT.709

Audio
ID                                       : 2
Format                                   : AAC
Format/Info                              : Advanced Audio Codec
Format profile                           : LC
Codec ID                                 : 40
Duration                                 : 7mn 32s
Source duration                          : 7mn 32s
Bit rate mode                            : Constant
Bit rate                                 : 256 Kbps
Channel(s)                               : 2 channels
Channel positions                        : Front: L R
Sampling rate                            : 44.1 KHz
Frame rate                               : 43.066 fps (1024 spf)
Compression mode                         : Lossy
Stream size                              : 13.6 MiB (5%)
Source stream size                       : 13.6 MiB (5%)
Language                                 : English
Encoded date                             : UTC 2014-06-03 21:13:45
Tagged date                              : UTC 2014-06-03 21:14:09

Other #1
ID                                       : 3
Type                                     : Hint
Format                                   : RTP
Codec ID                                 : rtp 
Duration                                 : 7mn 32s
Title                                    : Hinted Sound Track
Language                                 : English
Default                                  : No
Encoded date                             : UTC 2014-06-03 21:13:45
Tagged date                              : UTC 2014-06-03 21:14:09
Source duration                          : 452859
Source frame count                       : 16410
Source stream size                       : 837168
Stream size                              : 837168
Bit rate mode                            : VBR

Other #2
ID                                       : 4
Type                                     : Hint
Format                                   : RTP
Codec ID                                 : rtp 
Duration                                 : 7mn 32s
Title                                    : Hinted Video Track
Language                                 : English
Default                                  : No
Encoded date                             : UTC 2014-06-03 21:13:48
Tagged date                              : UTC 2014-06-03 21:14:09



                        

what oil to use for a massage

massage-videos in New