massage oil scents spytug.14.06.03.girl.23.mp4

 massage oil scents

Download: http://rapidgator.net/file/69f9cd8754fb7d3b3186c990be40762e/5yqg_obldkr.7z.html
Archive key: 5yqg
Technical details

General
Complete name                            : /tmp/spytug.14.06.03.girl.23.mp4/spytug.14.06.03.girl.23.mp4
Format                                   : MPEG-4
Format profile                           : Base Media / Version 2
Codec ID                                 : mp42 (mp42/mp41)
File size                                : 434 MiB
Duration                                 : 10mn 27s
Overall bit rate                         : 5 800 Kbps
Encoded date                             : UTC 2014-06-02 05:35:12
Tagged date                              : UTC 2014-06-02 05:35:34

Video
ID                                       : 1
Format                                   : AVC
Format/Info                              : Advanced Video Codec
Format profile                           : Main@L4
Format settings, CABAC                   : No
Format settings, ReFrames                : 2 frames
Format settings, GOP                     : M=2, N=30
Codec ID                                 : avc1
Codec ID/Info                            : Advanced Video Coding
Duration                                 : 10mn 27s
Bit rate                                 : 5 265 Kbps
Width                                    : 1 920 pixels
Height                                   : 1 080 pixels
Display aspect ratio                     : 16:9
Frame rate mode                          : Constant
Frame rate                               : 29.970 (30000/1001) fps
Color space                              : YUV
Chroma subsampling                       : 4:2:0
Bit depth                                : 8 bits
Scan type                                : Progressive
Bits/(Pixel*Frame)                       : 0.085
Stream size                              : 394 MiB (91%)
Language                                 : English
Encoded date                             : UTC 2014-06-02 05:34:59
Tagged date                              : UTC 2014-06-02 05:35:34
Color range                              : Limited
Color primaries                          : BT.709
Transfer characteristics                 : BT.709
Matrix coefficients                      : BT.709

Audio
ID                                       : 2
Format                                   : AAC
Format/Info                              : Advanced Audio Codec
Format profile                           : LC
Codec ID                                 : 40
Duration                                 : 10mn 27s
Source duration                          : 10mn 27s
Bit rate mode                            : Constant
Bit rate                                 : 256 Kbps
Channel(s)                               : 2 channels
Channel positions                        : Front: L R
Sampling rate                            : 44.1 KHz
Frame rate                               : 43.066 fps (1024 spf)
Compression mode                         : Lossy
Stream size                              : 18.7 MiB (4%)
Source stream size                       : 18.7 MiB (4%)
Language                                 : English
Encoded date                             : UTC 2014-06-02 05:34:59
Tagged date                              : UTC 2014-06-02 05:35:34

Other #1
ID                                       : 3
Type                                     : Hint
Format                                   : RTP
Codec ID                                 : rtp 
Duration                                 : 10mn 27s
Title                                    : Hinted Sound Track
Language                                 : English
Default                                  : No
Encoded date                             : UTC 2014-06-02 05:34:59
Tagged date                              : UTC 2014-06-02 05:35:34
Source duration                          : 627635
Source frame count                       : 19816
Source stream size                       : 1066592
Stream size                              : 1066592
Bit rate mode                            : VBR

Other #2
ID                                       : 4
Type                                     : Hint
Format                                   : RTP
Codec ID                                 : rtp 
Duration                                 : 10mn 27s
Title                                    : Hinted Video Track
Language                                 : English
Default                                  : No
Encoded date                             : UTC 2014-06-02 05:35:03
Tagged date                              : UTC 2014-06-02 05:35:34



                        

massage oil scents

massage-love in Videos