spytug.14.04.22.girl.11.mp4

 gjhyj ������

Download: http://rapidgator.net/file/92f0e0310f2a14e613d50c524e2a2730/br4c_22hny.7z.html
Archive key: br4c
Technical details

General
Complete name                            : /tmp/spytug.14.04.22.girl.11.mp4/spytug.14.04.22.girl.11.mp4
Format                                   : MPEG-4
Format profile                           : Base Media / Version 2
Codec ID                                 : mp42 (mp42/mp41)
File size                                : 213 MiB
Duration                                 : 5mn 25s
Overall bit rate                         : 5 473 Kbps
Encoded date                             : UTC 2014-04-16 06:55:10
Tagged date                              : UTC 2014-04-16 06:55:22

Video
ID                                       : 1
Format                                   : AVC
Format/Info                              : Advanced Video Codec
Format profile                           : Main@L4
Format settings, CABAC                   : No
Format settings, ReFrames                : 2 frames
Format settings, GOP                     : M=2, N=30
Codec ID                                 : avc1
Codec ID/Info                            : Advanced Video Coding
Duration                                 : 5mn 25s
Bit rate                                 : 4 945 Kbps
Width                                    : 1 920 pixels
Height                                   : 1 080 pixels
Display aspect ratio                     : 16:9
Frame rate mode                          : Constant
Frame rate                               : 29.970 (30000/1001) fps
Color space                              : YUV
Chroma subsampling                       : 4:2:0
Bit depth                                : 8 bits
Scan type                                : Progressive
Bits/(Pixel*Frame)                       : 0.080
Stream size                              : 192 MiB (90%)
Language                                 : English
Encoded date                             : UTC 2014-04-16 06:55:03
Tagged date                              : UTC 2014-04-16 06:55:22
Color range                              : Limited
Color primaries                          : BT.709
Transfer characteristics                 : BT.709
Matrix coefficients                      : BT.709

Audio
ID                                       : 2
Format                                   : AAC
Format/Info                              : Advanced Audio Codec
Format profile                           : LC
Codec ID                                 : 40
Duration                                 : 5mn 25s
Source duration                          : 5mn 25s
Bit rate mode                            : Constant
Bit rate                                 : 256 Kbps
Channel(s)                               : 2 channels
Channel positions                        : Front: L R
Sampling rate                            : 44.1 KHz
Frame rate                               : 43.066 fps (1024 spf)
Compression mode                         : Lossy
Stream size                              : 9.79 MiB (5%)
Source stream size                       : 9.79 MiB (5%)
Language                                 : English
Encoded date                             : UTC 2014-04-16 06:55:03
Tagged date                              : UTC 2014-04-16 06:55:22

Other #1
ID                                       : 3
Type                                     : Hint
Format                                   : RTP
Codec ID                                 : rtp 
Duration                                 : 5mn 25s
Title                                    : Hinted Sound Track
Language                                 : English
Default                                  : No
Encoded date                             : UTC 2014-04-16 06:55:03
Tagged date                              : UTC 2014-04-16 06:55:22
Source duration                          : 325799
Source frame count                       : 12064
Source stream size                       : 610544
Stream size                              : 610544
Bit rate mode                            : VBR

Other #2
ID                                       : 4
Type                                     : Hint
Format                                   : RTP
Codec ID                                 : rtp 
Duration                                 : 5mn 25s
Title                                    : Hinted Video Track
Language                                 : English
Default                                  : No
Encoded date                             : UTC 2014-04-16 06:55:05
Tagged date                              : UTC 2014-04-16 06:55:22



                        

gjhyj ������

massage-love in New