spytug.14.04.19.girl.8.mp4 milking your prostate

 milking your prostate

Download: http://rapidgator.net/file/a810d805d9ea7a7be10b99eaca4ab8a6/ol0k_g5yg.7z.html
Archive key: ol0k
Technical details

General
Complete name                            : /tmp/spytug.14.04.19.girl.8.mp4/spytug.14.04.19.girl.8.mp4
Format                                   : MPEG-4
Format profile                           : Base Media / Version 2
Codec ID                                 : mp42 (mp42/mp41)
File size                                : 317 MiB
Duration                                 : 8mn 25s
Overall bit rate                         : 5 254 Kbps
Encoded date                             : UTC 2014-04-16 02:25:18
Tagged date                              : UTC 2014-04-16 02:25:35

Video
ID                                       : 1
Format                                   : AVC
Format/Info                              : Advanced Video Codec
Format profile                           : Main@L4
Format settings, CABAC                   : No
Format settings, ReFrames                : 2 frames
Format settings, GOP                     : M=2, N=30
Codec ID                                 : avc1
Codec ID/Info                            : Advanced Video Coding
Duration                                 : 8mn 25s
Bit rate                                 : 4 735 Kbps
Width                                    : 1 920 pixels
Height                                   : 1 080 pixels
Display aspect ratio                     : 16:9
Frame rate mode                          : Constant
Frame rate                               : 29.970 (30000/1001) fps
Color space                              : YUV
Chroma subsampling                       : 4:2:0
Bit depth                                : 8 bits
Scan type                                : Progressive
Bits/(Pixel*Frame)                       : 0.076
Stream size                              : 285 MiB (90%)
Language                                 : English
Encoded date                             : UTC 2014-04-16 02:25:07
Tagged date                              : UTC 2014-04-16 02:25:35
Color range                              : Limited
Color primaries                          : BT.709
Transfer characteristics                 : BT.709
Matrix coefficients                      : BT.709

Audio
ID                                       : 2
Format                                   : AAC
Format/Info                              : Advanced Audio Codec
Format profile                           : LC
Codec ID                                 : 40
Duration                                 : 8mn 25s
Source duration                          : 8mn 25s
Bit rate mode                            : Constant
Bit rate                                 : 256 Kbps
Channel(s)                               : 2 channels
Channel positions                        : Front: L R
Sampling rate                            : 44.1 KHz
Frame rate                               : 43.066 fps (1024 spf)
Compression mode                         : Lossy
Stream size                              : 15.2 MiB (5%)
Source stream size                       : 15.2 MiB (5%)
Language                                 : English
Encoded date                             : UTC 2014-04-16 02:25:07
Tagged date                              : UTC 2014-04-16 02:25:35

Other #1
ID                                       : 3
Type                                     : Hint
Format                                   : RTP
Codec ID                                 : rtp 
Duration                                 : 8mn 25s
Title                                    : Hinted Sound Track
Language                                 : English
Default                                  : No
Encoded date                             : UTC 2014-04-16 02:25:07
Tagged date                              : UTC 2014-04-16 02:25:35
Source duration                          : 505777
Source frame count                       : 16550
Source stream size                       : 878112
Stream size                              : 878112
Bit rate mode                            : VBR

Other #2
ID                                       : 4
Type                                     : Hint
Format                                   : RTP
Codec ID                                 : rtp 
Duration                                 : 8mn 25s
Title                                    : Hinted Video Track
Language                                 : English
Default                                  : No
Encoded date                             : UTC 2014-04-16 02:25:11
Tagged date                              : UTC 2014-04-16 02:25:35



                        

milking your prostate

massage-love in Massage