massage parlor erotic spytug.14.03.01.girl.15.mp4

 massage parlor erotic

Download:
Archive key: r11
Technical details

General
Complete name                            : /tmp/spytug.14.03.01.girl.15.mp4/spytug.14.03.01.girl.15.mp4
Format                                   : MPEG-4
Format profile                           : QuickTime
Codec ID                                 : qt   2005.03 (qt  )
File size                                : 329 MiB
Duration                                 : 8mn 20s
Overall bit rate                         : 5 509 Kbps
Movie name                               : SpyTug49-G15
Album/Performer                          : David Graves
Description                              : This video is about SpyTug49-G15
Encoded date                             : UTC 2014-02-22 07:21:50
Tagged date                              : UTC 2014-02-22 07:49:46
Writing library                          : Apple QuickTime
com.apple.quicktime.author               : David Graves
com.apple.quicktime.keywords             : SpyTug
com.apple.quicktime.title                : SpyTug49-G15
Media/UUID                               : F3E92B18-5A41-4E09-9676-C9E3C04725BB
Keyword                                  : SpyTug

Video
ID                                       : 1
Format                                   : AVC
Format/Info                              : Advanced Video Codec
Format profile                           : Main@L4
Format settings, CABAC                   : No
Format settings, ReFrames                : 2 frames
Format settings, GOP                     : M=2, N=24
Codec ID                                 : avc1
Codec ID/Info                            : Advanced Video Coding
Duration                                 : 8mn 20s
Bit rate                                 : 5 247 Kbps
Width                                    : 1 920 pixels
Clean aperture width                     : 1 888 pixels
Height                                   : 1 080 pixels
Clean aperture height                    : 1 062 pixels
Display aspect ratio                     : 16:9
Frame rate mode                          : Constant
Frame rate                               : 29.970 (30000/1001) fps
Color space                              : YUV
Chroma subsampling                       : 4:2:0
Bit depth                                : 8 bits
Scan type                                : Progressive
Bits/(Pixel*Frame)                       : 0.084
Stream size                              : 313 MiB (95%)
Language                                 : English
Encoded date                             : UTC 2014-02-22 07:49:16
Tagged date                              : UTC 2014-02-22 07:49:46
Color range                              : Limited
Color primaries                          : BT.709
Transfer characteristics                 : BT.709
Matrix coefficients                      : BT.709

Audio
ID                                       : 2
Format                                   : AAC
Format/Info                              : Advanced Audio Codec
Format profile                           : LC
Codec ID                                 : 40
Duration                                 : 8mn 20s
Source duration                          : 8mn 20s
Bit rate mode                            : Constant
Bit rate                                 : 256 Kbps
Channel(s)                               : 2 channels
Channel positions                        : Front: L R
Sampling rate                            : 44.1 KHz
Frame rate                               : 43.066 fps (1024 spf)
Compression mode                         : Lossy
Stream size                              : 15.3 MiB (5%)
Source stream size                       : 15.3 MiB (5%)
Language                                 : English
Encoded date                             : UTC 2014-02-22 07:49:17
Tagged date                              : UTC 2014-02-22 07:49:46

Other
ID                                       : 3
Type                                     : Time code
Format                                   : QuickTime TC
Duration                                 : 8mn 20s
Time code of first frame                 : 00:00:00:00
Time code, striped                       : Yes
Language                                 : English
Encoded date                             : UTC 2014-02-22 07:49:46
Tagged date                              : UTC 2014-02-22 07:49:46



                        

massage parlor erotic

massage-videos in Massage