spytug.14.02.08.girl.7.mp4 thai massage is

 thai massage is

Download: http://rapidgator.net/file/c0f8bef4142d7691ebe452e2a3fb7c9b/a81l_7zl0.7z.html
Archive key: a81l
Technical details

General
Complete name                            : /tmp/spytug.14.02.08.girl.7.mp4/spytug.14.02.08.girl.7.mp4
Format                                   : MPEG-4
Format profile                           : QuickTime
Codec ID                                 : qt   2005.03 (qt  )
File size                                : 209 MiB
Duration                                 : 5mn 27s
Overall bit rate                         : 5 351 Kbps
Movie name                               : SpyTug43-G7
Album/Performer                          : David Graves
Description                              : This video is about SpyTug43-G7
Encoded date                             : UTC 2014-01-23 01:59:18
Tagged date                              : UTC 2014-01-23 03:25:07
Writing library                          : Apple QuickTime
com.apple.quicktime.author               : David Graves
com.apple.quicktime.keywords             : SpyTug
com.apple.quicktime.title                : SpyTug43-G7
Media/UUID                               : C8ADC865-5763-4B08-8011-891C6992F0D4
Keyword                                  : SpyTug

Video
ID                                       : 1
Format                                   : AVC
Format/Info                              : Advanced Video Codec
Format profile                           : Main@L4
Format settings, CABAC                   : No
Format settings, ReFrames                : 2 frames
Format settings, GOP                     : M=2, N=24
Codec ID                                 : avc1
Codec ID/Info                            : Advanced Video Coding
Duration                                 : 5mn 27s
Bit rate                                 : 5 120 Kbps
Width                                    : 1 920 pixels
Clean aperture width                     : 1 888 pixels
Height                                   : 1 080 pixels
Clean aperture height                    : 1 062 pixels
Display aspect ratio                     : 16:9
Frame rate mode                          : Constant
Frame rate                               : 29.970 (30000/1001) fps
Color space                              : YUV
Chroma subsampling                       : 4:2:0
Bit depth                                : 8 bits
Scan type                                : Progressive
Bits/(Pixel*Frame)                       : 0.082
Stream size                              : 200 MiB (96%)
Language                                 : English
Encoded date                             : UTC 2014-01-23 03:24:53
Tagged date                              : UTC 2014-01-23 03:25:07
Color range                              : Limited
Color primaries                          : BT.709
Transfer characteristics                 : BT.709
Matrix coefficients                      : BT.709

Audio
ID                                       : 2
Format                                   : AAC
Format/Info                              : Advanced Audio Codec
Format profile                           : LC
Codec ID                                 : 40
Duration                                 : 5mn 27s
Source duration                          : 5mn 27s
Bit rate mode                            : Constant
Bit rate                                 : 225 Kbps
Nominal bit rate                         : 256 Kbps
Channel(s)                               : 2 channels
Channel positions                        : Front: L R
Sampling rate                            : 44.1 KHz
Frame rate                               : 43.066 fps (1024 spf)
Compression mode                         : Lossy
Stream size                              : 8.79 MiB (4%)
Source stream size                       : 8.79 MiB (4%)
Language                                 : English
Encoded date                             : UTC 2014-01-23 03:24:53
Tagged date                              : UTC 2014-01-23 03:25:07

Other
ID                                       : 3
Type                                     : Time code
Format                                   : QuickTime TC
Duration                                 : 5mn 27s
Time code of first frame                 : 00:00:00;00
Time code, striped                       : Yes
Language                                 : English
Encoded date                             : UTC 2014-01-23 03:25:07
Tagged date                              : UTC 2014-01-23 03:25:07



                        

thai massage is

massage-videos in New