spytug.14.02.01.girl.13.mp4 erotic places

 erotic places

Download: http://rapidgator.net/file/52c9eb4dc792b2d6279c340f5246d2ae/doxc_pq29n.7z.html
Archive key: doxc
Technical details

General
Complete name                            : /tmp/spytug.14.02.01.girl.13.mp4/spytug.14.02.01.girl.13.mp4
Format                                   : MPEG-4
Format profile                           : Base Media / Version 2
Codec ID                                 : mp42 (mp42/mp41)
File size                                : 253 MiB
Duration                                 : 6mn 19s
Overall bit rate                         : 5 595 Kbps
Encoded date                             : UTC 2014-03-25 23:47:03
Tagged date                              : UTC 2014-03-25 23:47:16

Video
ID                                       : 1
Format                                   : AVC
Format/Info                              : Advanced Video Codec
Format profile                           : Main@L4
Format settings, CABAC                   : No
Format settings, ReFrames                : 2 frames
Format settings, GOP                     : M=2, N=30
Codec ID                                 : avc1
Codec ID/Info                            : Advanced Video Coding
Duration                                 : 6mn 19s
Bit rate                                 : 5 065 Kbps
Width                                    : 1 920 pixels
Height                                   : 1 080 pixels
Display aspect ratio                     : 16:9
Frame rate mode                          : Constant
Frame rate                               : 29.970 (30000/1001) fps
Color space                              : YUV
Chroma subsampling                       : 4:2:0
Bit depth                                : 8 bits
Scan type                                : Progressive
Bits/(Pixel*Frame)                       : 0.082
Stream size                              : 229 MiB (91%)
Language                                 : English
Encoded date                             : UTC 2014-03-25 23:46:56
Tagged date                              : UTC 2014-03-25 23:47:16
Color range                              : Limited
Color primaries                          : BT.709
Transfer characteristics                 : BT.709
Matrix coefficients                      : BT.709

Audio
ID                                       : 2
Format                                   : AAC
Format/Info                              : Advanced Audio Codec
Format profile                           : LC
Codec ID                                 : 40
Duration                                 : 6mn 19s
Source duration                          : 6mn 19s
Bit rate mode                            : Constant
Bit rate                                 : 256 Kbps
Channel(s)                               : 2 channels
Channel positions                        : Front: L R
Sampling rate                            : 44.1 KHz
Frame rate                               : 43.066 fps (1024 spf)
Compression mode                         : Lossy
Stream size                              : 11.4 MiB (4%)
Source stream size                       : 11.4 MiB (4%)
Language                                 : English
Encoded date                             : UTC 2014-03-25 23:46:56
Tagged date                              : UTC 2014-03-25 23:47:16

Other #1
ID                                       : 3
Type                                     : Hint
Format                                   : RTP
Codec ID                                 : rtp 
Duration                                 : 6mn 19s
Title                                    : Hinted Sound Track
Language                                 : English
Default                                  : No
Encoded date                             : UTC 2014-03-25 23:46:56
Tagged date                              : UTC 2014-03-25 23:47:16
Source duration                          : 379460
Source frame count                       : 14776
Source stream size                       : 734304
Stream size                              : 734304
Bit rate mode                            : VBR

Other #2
ID                                       : 4
Type                                     : Hint
Format                                   : RTP
Codec ID                                 : rtp 
Duration                                 : 6mn 19s
Title                                    : Hinted Video Track
Language                                 : English
Default                                  : No
Encoded date                             : UTC 2014-03-25 23:46:58
Tagged date                              : UTC 2014-03-25 23:47:16



                        

erotic places

massage-love in Massage