spytug.14.01.25.girl.12.mp4 confessions of a massage therapist

 confessions of a massage therapist

Download: http://rapidgator.net/file/0f7dcc62e5d4af35a868cd7425823529/tyas_qgk94.7z.html
Archive key: tyas
Technical details

General
Complete name                            : /tmp/spytug.14.01.25.girl.12.mp4/spytug.14.01.25.girl.12.mp4
Format                                   : MPEG-4
Format profile                           : QuickTime
Codec ID                                 : qt   2005.03 (qt  )
File size                                : 393 MiB
Duration                                 : 10mn 11s
Overall bit rate                         : 5 384 Kbps
Movie name                               : SpyTug39-G12
Album/Performer                          : David Graves
Description                              : This video is about SpyTug39-G12
Encoded date                             : UTC 2013-12-28 23:56:42
Tagged date                              : UTC 2013-12-29 00:44:28
Writing library                          : Apple QuickTime
com.apple.quicktime.author               : David Graves
com.apple.quicktime.keywords             : SpyTug
com.apple.quicktime.title                : SpyTug39-G12
Media/UUID                               : FBEC9191-6398-4DE0-A254-DAF0C0C15F45
Keyword                                  : SpyTug

Video
ID                                       : 1
Format                                   : AVC
Format/Info                              : Advanced Video Codec
Format profile                           : Main@L4
Format settings, CABAC                   : No
Format settings, ReFrames                : 2 frames
Format settings, GOP                     : M=2, N=24
Codec ID                                 : avc1
Codec ID/Info                            : Advanced Video Coding
Duration                                 : 10mn 11s
Bit rate                                 : 5 135 Kbps
Width                                    : 1 920 pixels
Clean aperture width                     : 1 888 pixels
Height                                   : 1 080 pixels
Clean aperture height                    : 1 062 pixels
Display aspect ratio                     : 16:9
Frame rate mode                          : Constant
Frame rate                               : 29.970 (30000/1001) fps
Color space                              : YUV
Chroma subsampling                       : 4:2:0
Bit depth                                : 8 bits
Scan type                                : Progressive
Bits/(Pixel*Frame)                       : 0.083
Stream size                              : 375 MiB (95%)
Language                                 : English
Encoded date                             : UTC 2013-12-29 00:44:02
Tagged date                              : UTC 2013-12-29 00:44:28
Color range                              : Limited
Color primaries                          : BT.709
Transfer characteristics                 : BT.709
Matrix coefficients                      : BT.709

Audio
ID                                       : 2
Format                                   : AAC
Format/Info                              : Advanced Audio Codec
Format profile                           : LC
Codec ID                                 : 40
Duration                                 : 10mn 11s
Source duration                          : 10mn 11s
Bit rate mode                            : Constant
Bit rate                                 : 243 Kbps
Nominal bit rate                         : 256 Kbps
Channel(s)                               : 2 channels
Channel positions                        : Front: L R
Sampling rate                            : 44.1 KHz
Frame rate                               : 43.066 fps (1024 spf)
Compression mode                         : Lossy
Stream size                              : 17.8 MiB (5%)
Source stream size                       : 17.8 MiB (5%)
Language                                 : English
Encoded date                             : UTC 2013-12-29 00:44:02
Tagged date                              : UTC 2013-12-29 00:44:28

Other
ID                                       : 3
Type                                     : Time code
Format                                   : QuickTime TC
Duration                                 : 10mn 11s
Time code of first frame                 : 00:00:00;00
Time code, striped                       : Yes
Language                                 : English
Encoded date                             : UTC 2013-12-29 00:44:28
Tagged date                              : UTC 2013-12-29 00:44:28



                        

confessions of a massage therapist

massage-love in Videos