private massage parlour spytug.13.12.21.girl.6.mp4

 private massage parlour

Download: http://rapidgator.net/file/0bf336d7065b32239b4b0cb8faebffae/b0hh_qo57n.7z.html
Archive key: b0hh
Technical details

General
Complete name                            : /tmp/spytug.13.12.21.girl.6.mp4/spytug.13.12.21.girl.6.mp4
Format                                   : MPEG-4
Format profile                           : QuickTime
Codec ID                                 : qt   2005.03 (qt  )
File size                                : 190 MiB
Duration                                 : 5mn 0s
Overall bit rate                         : 5 306 Kbps
Movie name                               : SpyTug29-G6 1
Album/Performer                          : David Graves
Description                              : This video is about SpyTug29-G6 1
Encoded date                             : UTC 2013-10-15 01:42:06
Tagged date                              : UTC 2013-10-15 03:01:14
Writing library                          : Apple QuickTime
com.apple.quicktime.author               : David Graves
com.apple.quicktime.keywords             : SpyTug
com.apple.quicktime.title                : SpyTug29-G6 1
Media/UUID                               : CD45FDC0-1A3F-4F55-9B28-33514E1BF1FC
Keyword                                  : SpyTug

Video
ID                                       : 1
Format                                   : AVC
Format/Info                              : Advanced Video Codec
Format profile                           : Main@L4
Format settings, CABAC                   : No
Format settings, ReFrames                : 2 frames
Format settings, GOP                     : M=2, N=24
Codec ID                                 : avc1
Codec ID/Info                            : Advanced Video Coding
Duration                                 : 5mn 0s
Bit rate                                 : 5 051 Kbps
Width                                    : 1 920 pixels
Clean aperture width                     : 1 888 pixels
Height                                   : 1 080 pixels
Clean aperture height                    : 1 062 pixels
Display aspect ratio                     : 16:9
Frame rate mode                          : Constant
Frame rate                               : 29.970 (30000/1001) fps
Color space                              : YUV
Chroma subsampling                       : 4:2:0
Bit depth                                : 8 bits
Scan type                                : Progressive
Bits/(Pixel*Frame)                       : 0.081
Stream size                              : 181 MiB (95%)
Language                                 : English
Encoded date                             : UTC 2013-10-15 03:01:07
Tagged date                              : UTC 2013-10-15 03:01:14
Color range                              : Limited
Color primaries                          : BT.709
Transfer characteristics                 : BT.709
Matrix coefficients                      : BT.709

Audio
ID                                       : 2
Format                                   : AAC
Format/Info                              : Advanced Audio Codec
Format profile                           : LC
Codec ID                                 : 40
Duration                                 : 5mn 0s
Source duration                          : 5mn 0s
Bit rate mode                            : Constant
Bit rate                                 : 256 Kbps
Channel(s)                               : 2 channels
Channel positions                        : Front: L R
Sampling rate                            : 44.1 KHz
Frame rate                               : 43.066 fps (1024 spf)
Compression mode                         : Lossy
Stream size                              : 8.97 MiB (5%)
Source stream size                       : 8.97 MiB (5%)
Language                                 : English
Encoded date                             : UTC 2013-10-15 03:01:07
Tagged date                              : UTC 2013-10-15 03:01:14

Other
ID                                       : 3
Type                                     : Time code
Format                                   : QuickTime TC
Duration                                 : 5mn 0s
Time code of first frame                 : 00:00:00;00
Time code, striped                       : Yes
Language                                 : English
Encoded date                             : UTC 2013-10-15 03:01:14
Tagged date                              : UTC 2013-10-15 03:01:14



                        

private massage parlour

massage-videos in Videos