spytug.13.12.10.girl.4.mp4 emily hegre art

 emily hegre art

Download: http://rapidgator.net/file/be210ebcd3700ea1efc8a31659839a0d/b0y_04309.7z.html
Archive key: b0y
Technical details

General
Complete name                            : /tmp/spytug.13.12.10.girl.4.mp4/spytug.13.12.10.girl.4.mp4
Format                                   : MPEG-4
Format profile                           : QuickTime
Codec ID                                 : qt   2005.03 (qt  )
File size                                : 214 MiB
Duration                                 : 5mn 36s
Overall bit rate                         : 5 327 Kbps
Movie name                               : SpyTug26-G4
Album/Performer                          : David Graves
Description                              : This video is about SpyTug26-G4
Encoded date                             : UTC 2013-10-03 19:18:59
Tagged date                              : UTC 2013-10-03 21:09:19
Writing library                          : Apple QuickTime
com.apple.quicktime.author               : David Graves
com.apple.quicktime.keywords             : SpyTug
com.apple.quicktime.title                : SpyTug26-G4
Media/UUID                               : 17AFB7E1-15B0-4DA3-B452-E253F411BFE1
Keyword                                  : SpyTug

Video
ID                                       : 1
Format                                   : AVC
Format/Info                              : Advanced Video Codec
Format profile                           : Main@L4
Format settings, CABAC                   : No
Format settings, ReFrames                : 2 frames
Format settings, GOP                     : M=2, N=24
Codec ID                                 : avc1
Codec ID/Info                            : Advanced Video Coding
Duration                                 : 5mn 36s
Bit rate                                 : 5 072 Kbps
Width                                    : 1 920 pixels
Clean aperture width                     : 1 888 pixels
Height                                   : 1 080 pixels
Clean aperture height                    : 1 062 pixels
Display aspect ratio                     : 16:9
Frame rate mode                          : Constant
Frame rate                               : 29.970 (30000/1001) fps
Color space                              : YUV
Chroma subsampling                       : 4:2:0
Bit depth                                : 8 bits
Scan type                                : Progressive
Bits/(Pixel*Frame)                       : 0.082
Stream size                              : 203 MiB (95%)
Language                                 : English
Encoded date                             : UTC 2013-10-03 21:09:11
Tagged date                              : UTC 2013-10-03 21:09:19
Color range                              : Limited
Color primaries                          : BT.709
Transfer characteristics                 : BT.709
Matrix coefficients                      : BT.709

Audio
ID                                       : 2
Format                                   : AAC
Format/Info                              : Advanced Audio Codec
Format profile                           : LC
Codec ID                                 : 40
Duration                                 : 5mn 36s
Source duration                          : 5mn 36s
Bit rate mode                            : Constant
Bit rate                                 : 256 Kbps
Channel(s)                               : 2 channels
Channel positions                        : Front: L R
Sampling rate                            : 44.1 KHz
Frame rate                               : 43.066 fps (1024 spf)
Compression mode                         : Lossy
Stream size                              : 10.0 MiB (5%)
Source stream size                       : 10.0 MiB (5%)
Language                                 : English
Encoded date                             : UTC 2013-10-03 21:09:11
Tagged date                              : UTC 2013-10-03 21:09:19

Other
ID                                       : 3
Type                                     : Time code
Format                                   : QuickTime TC
Duration                                 : 5mn 36s
Time code of first frame                 : 00:00:00;00
Time code, striped                       : Yes
Language                                 : English
Encoded date                             : UTC 2013-10-03 21:09:19
Tagged date                              : UTC 2013-10-03 21:09:19



                        

emily hegre art

massage-love in Massage