spytug.13.11.09.girl.2.mp4 how to sex massage

 how to sex massage

Download:
Archive key: gcz0
Technical details

General
Complete name                            : /tmp/spytug.13.11.09.girl.2.mp4/spytug.13.11.09.girl.2.mp4
Format                                   : MPEG-4
Format profile                           : QuickTime
Codec ID                                 : qt   2005.03 (qt  )
File size                                : 142 MiB
Duration                                 : 3mn 52s
Overall bit rate                         : 5 126 Kbps
Movie name                               : SpyTug17-G2
Album/Performer                          : David Graves
Description                              : This video is about SpyTug17-G2
Encoded date                             : UTC 2013-09-30 18:39:32
Tagged date                              : UTC 2013-09-30 19:05:17
Writing library                          : Apple QuickTime
com.apple.quicktime.author               : David Graves
com.apple.quicktime.keywords             : SpyTug
com.apple.quicktime.title                : SpyTug17-G2
Media/UUID                               : 391AD88F-E496-48EA-890D-E157253F4144
Keyword                                  : SpyTug

Video
ID                                       : 1
Format                                   : AVC
Format/Info                              : Advanced Video Codec
Format profile                           : Main@L4
Format settings, CABAC                   : No
Format settings, ReFrames                : 2 frames
Format settings, GOP                     : M=2, N=24
Codec ID                                 : avc1
Codec ID/Info                            : Advanced Video Coding
Duration                                 : 3mn 52s
Bit rate                                 : 4 869 Kbps
Width                                    : 1 920 pixels
Clean aperture width                     : 1 888 pixels
Height                                   : 1 080 pixels
Clean aperture height                    : 1 062 pixels
Display aspect ratio                     : 16:9
Frame rate mode                          : Constant
Frame rate                               : 29.970 (30000/1001) fps
Color space                              : YUV
Chroma subsampling                       : 4:2:0
Bit depth                                : 8 bits
Scan type                                : Progressive
Bits/(Pixel*Frame)                       : 0.078
Stream size                              : 135 MiB (95%)
Language                                 : English
Encoded date                             : UTC 2013-09-30 19:05:12
Tagged date                              : UTC 2013-09-30 19:05:17
Color range                              : Limited
Color primaries                          : BT.709
Transfer characteristics                 : BT.709
Matrix coefficients                      : BT.709

Audio
ID                                       : 2
Format                                   : AAC
Format/Info                              : Advanced Audio Codec
Format profile                           : LC
Codec ID                                 : 40
Duration                                 : 3mn 52s
Source duration                          : 3mn 52s
Bit rate mode                            : Constant
Bit rate                                 : 256 Kbps
Channel(s)                               : 2 channels
Channel positions                        : Front: L R
Sampling rate                            : 44.1 KHz
Frame rate                               : 43.066 fps (1024 spf)
Compression mode                         : Lossy
Stream size                              : 6.98 MiB (5%)
Source stream size                       : 6.98 MiB (5%)
Language                                 : English
Encoded date                             : UTC 2013-09-30 19:05:12
Tagged date                              : UTC 2013-09-30 19:05:17

Other
ID                                       : 3
Type                                     : Time code
Format                                   : QuickTime TC
Duration                                 : 3mn 52s
Time code of first frame                 : 00:00:00;00
Time code, striped                       : Yes
Language                                 : English
Encoded date                             : UTC 2013-09-30 19:05:17
Tagged date                              : UTC 2013-09-30 19:05:17



                        

how to sex massage

massage-love in New