massage in breast spytug.13.09.14.girl.1.mp4

 massage in breast

Download: http://rapidgator.net/file/3b9949b269bf509a9c48570546a8e4d7/odr_rkax.7z.html
Archive key: odr
Technical details

General
Complete name                            : /tmp/spytug.13.09.14.girl.1.mp4/spytug.13.09.14.girl.1.mp4
Format                                   : MPEG-4
Format profile                           : QuickTime
Codec ID                                 : qt   2005.03 (qt  )
File size                                : 391 MiB
Duration                                 : 10mn 48s
Overall bit rate                         : 5 058 Kbps
Movie name                               : SpyTug1-G1
Album/Performer                          : David Graves
Description                              : This video is about SpyTug1-G1
Encoded date                             : UTC 2014-02-13 07:04:06
Tagged date                              : UTC 2014-02-13 07:43:11
Writing library                          : Apple QuickTime
com.apple.quicktime.author               : David Graves
com.apple.quicktime.keywords             : SpyTug
com.apple.quicktime.title                : SpyTug1-G1
Media/UUID                               : 348876E1-D49B-4858-97D0-8D7B38103851
Keyword                                  : SpyTug

Video
ID                                       : 1
Format                                   : AVC
Format/Info                              : Advanced Video Codec
Format profile                           : Main@L4
Format settings, CABAC                   : No
Format settings, ReFrames                : 2 frames
Format settings, GOP                     : M=2, N=24
Codec ID                                 : avc1
Codec ID/Info                            : Advanced Video Coding
Duration                                 : 10mn 48s
Bit rate                                 : 4 804 Kbps
Width                                    : 1 920 pixels
Clean aperture width                     : 1 888 pixels
Height                                   : 1 080 pixels
Clean aperture height                    : 1 062 pixels
Display aspect ratio                     : 16:9
Frame rate mode                          : Constant
Frame rate                               : 29.970 (30000/1001) fps
Color space                              : YUV
Chroma subsampling                       : 4:2:0
Bit depth                                : 8 bits
Scan type                                : Progressive
Bits/(Pixel*Frame)                       : 0.077
Stream size                              : 371 MiB (95%)
Language                                 : English
Encoded date                             : UTC 2014-02-13 07:42:54
Tagged date                              : UTC 2014-02-13 07:43:11
Color range                              : Limited
Color primaries                          : BT.709
Transfer characteristics                 : BT.709
Matrix coefficients                      : BT.709

Audio
ID                                       : 2
Format                                   : AAC
Format/Info                              : Advanced Audio Codec
Format profile                           : LC
Codec ID                                 : 40
Duration                                 : 10mn 48s
Source duration                          : 10mn 48s
Bit rate mode                            : Constant
Bit rate                                 : 256 Kbps
Channel(s)                               : 2 channels
Channel positions                        : Front: L R
Sampling rate                            : 44.1 KHz
Frame rate                               : 43.066 fps (1024 spf)
Compression mode                         : Lossy
Stream size                              : 19.3 MiB (5%)
Source stream size                       : 19.3 MiB (5%)
Language                                 : English
Encoded date                             : UTC 2014-02-13 07:42:54
Tagged date                              : UTC 2014-02-13 07:43:11

Other
ID                                       : 3
Type                                     : Time code
Format                                   : QuickTime TC
Duration                                 : 10mn 48s
Time code of first frame                 : 00:00:00;00
Time code, striped                       : Yes
Language                                 : English
Encoded date                             : UTC 2014-02-13 07:43:11
Tagged date                              : UTC 2014-02-13 07:43:11



                        

massage in breast

massage-videos in Videos